RSS
Facebook
G+

Buscador de IntercambioSOS:


Retroceder   Foro de Ayuda IntercambiosvirtualeS > Soporte sobre: Multimedia > Películas & Videos

Respuesta
 
Herramientas Desplegado
Antiguo 18-jul-2018     #1
Exclamación Error al reproducir películas en calidad (1080p BDRip)

Buenas.

necesito ayuda porque me descargue de la pagina películas en calidad 1080p BDRip y mi TV samsung 6 series 65 no la reconoce sale error de archivo, también me pasa lo mismo con otras películas de calidad (1080p BDRip).
Lo raro es que la misma película con misma calidad (1080p BDRip) descargada de otra pagina inclusive con mas Bit rate si la reproduce.

dejo el archivo info de la película descargada de la esta pagina que no me reproduce:
Spoiler:
Código:
General
Unique ID                   : 217307248164101346652416980189865439620 (0xA37BDA87F7122689B71915845B3DF184)
Complete name               : D:\Users\USUARIO\Videos\BDRip Full\Rampage (2018) 1080p BDRip Dual Español Latino\Rampage (2018).mkv
Format                      : Matroska
Format version              : Version 4 / Version 2
File size                   : 10.8 GiB
Duration                    : 1 h 47 min
Overall bit rate mode       : Variable
Overall bit rate            : 14.4 Mb/s
Movie name                  : Rampage.2018.1080p.BDRip.LATiNO.ENG.x264.AC3.DTS
Encoded date                : UTC 2018-07-12 01:08:14
Writing application         : mkvmerge v8.3.0 ('Over the Horizon') 64bit
Writing library             : libebml v1.3.1 + libmatroska v1.4.2

Video
ID                          : 1
Format                      : AVC
Format/Info                 : Advanced Video Codec
Format profile              : High [email protected]
Format settings             : CABAC / 3 Ref Frames
Format settings, CABAC      : Yes
Format settings, ReFrames   : 3 frames
Codec ID                    : V_MPEG4/ISO/AVC
Duration                    : 1 h 47 min
Bit rate mode               : Variable
Bit rate                    : 12.0 Mb/s
Maximum bit rate            : 14.0 Mb/s
Width                       : 1 920 pixels
Height                      : 800 pixels
Display aspect ratio        : 2.40:1
Frame rate mode             : Constant
Frame rate                  : 23.976 (24000/1001) FPS
Color space                 : YUV
Chroma subsampling          : 4:2:0
Bit depth                   : 10 bits
Scan type                   : Progressive
Bits/(Pixel*Frame)          : 0.325
Stream size                 : 8.97 GiB (83%)
Writing library             : x264 core 155 r2901 7d0ff22
Encoding settings           : cabac=1 / ref=4 / deblock=1:-1:-1 / analyse=0x3:0x133 / me=umh / subme=9 / psy=1 / psy_rd=1.00:0.15 / mixed_ref=1 / me_range=16 / chroma_me=1 / trellis=2 / 8x8dct=1 / cqm=0 / deadzone=21,11 / fast_pskip=1 / chroma_qp_offset=-3 / threads=24 / lookahead_threads=2 / sliced_threads=0 / slices=4 / nr=0 / decimate=1 / interlaced=0 / bluray_compat=0 / constrained_intra=0 / bframes=3 / b_pyramid=1 / b_adapt=2 / b_bias=0 / direct=3 / weightb=1 / open_gop=0 / weightp=0 / keyint=23 / keyint_min=1 / scenecut=40 / intra_refresh=0 / rc_lookahead=24 / rc=crf / mbtree=1 / crf=17.0 / qcomp=0.60 / qpmin=10 / qpmax=51 / qpstep=4 / vbv_maxrate=14000 / vbv_bufsize=14500 / crf_max=0.0 / nal_hrd=vbr / filler=0 / ip_ratio=1.40 / aq=1:1.00
Language                    : English
Default                     : Yes
Forced                      : Yes

Audio #1
ID                          : 2
Format                      : AC-3
Format/Info                 : Audio Coding 3
Codec ID                    : A_AC3
Duration                    : 1 h 47 min
Bit rate mode               : Constant
Bit rate                    : 448 kb/s
Channel(s)                  : 6 channels
Channel positions           : Front: L C R, Side: L R, LFE
Sampling rate               : 48.0 kHz
Frame rate                  : 31.250 FPS (1536 SPF)
Bit depth                   : 16 bits
Compression mode            : Lossy
Stream size                 : 344 MiB (3%)
Language                    : Spanish
Service kind                : Complete Main
Default                     : Yes
Forced                      : Yes

Audio #2
ID                          : 3
Format                      : DTS
Format/Info                 : Digital Theater Systems
Codec ID                    : A_DTS
Duration                    : 1 h 47 min
Bit rate mode               : Constant
Bit rate                    : 1 509 kb/s
Channel(s)                  : 6 channels
Channel positions           : Front: L C R, Side: L R, LFE
Sampling rate               : 48.0 kHz
Frame rate                  : 93.750 FPS (512 SPF)
Bit depth                   : 24 bits
Compression mode            : Lossy
Stream size                 : 1.13 GiB (10%)
Language                    : English
Default                     : No
Forced                      : No

Audio #3
ID                          : 4
Format                      : AC-3
Format/Info                 : Audio Coding 3
Codec ID                    : A_AC3
Duration                    : 1 h 47 min
Bit rate mode               : Constant
Bit rate                    : 448 kb/s
Channel(s)                  : 6 channels
Channel positions           : Front: L C R, Side: L R, LFE
Sampling rate               : 48.0 kHz
Frame rate                  : 31.250 FPS (1536 SPF)
Bit depth                   : 16 bits
Compression mode            : Lossy
Stream size                 : 344 MiB (3%)
Language                    : English
Service kind                : Complete Main
Default                     : No
Forced                      : No

Text #1
ID                          : 5
Format                      : UTF-8
Codec ID                    : S_TEXT/UTF8
Codec ID/Info               : UTF-8 Plain Text
Duration                    : 1 h 46 min
Bit rate                    : 47 b/s
Count of elements           : 1265
Stream size                 : 36.9 KiB (0%)
Language                    : Spanish
Default                     : No
Forced                      : No

Text #2
ID                          : 6
Format                      : UTF-8
Codec ID                    : S_TEXT/UTF8
Codec ID/Info               : UTF-8 Plain Text
Duration                    : 1 h 46 min
Bit rate                    : 1 b/s
Count of elements           : 28
Stream size                 : 961 Bytes (0%)
Title                       : Forzados
Language                    : Spanish
Default                     : Yes
Forced                      : Yes

Text #3
ID                          : 7
Format                      : UTF-8
Codec ID                    : S_TEXT/UTF8
Codec ID/Info               : UTF-8 Plain Text
Duration                    : 1 h 45 min
Bit rate                    : 56 b/s
Count of elements           : 1535
Stream size                 : 43.5 KiB (0%)
Title                       : SDH
Language                    : English
Default                     : No
Forced                      : No

Menu
00:00:00.000                : es:Capítulo 01
00:12:58.527                : es:Capítulo 02
00:19:56.278                : es:Capítulo 03
00:29:53.291                : es:Capítulo 04
00:40:35.391                : es:Capítulo 05
00:49:10.906                : es:Capítulo 06
01:02:38.171                : es:Capítulo 07
01:10:37.650                : es:Capítulo 08
01:20:10.472                : es:Capítulo 09
01:29:23.608                : es:Capítulo 10
01:39:43.185                : es:Capítulo 11


también dejo el archivo info de la película descargada de otra pagina que si me reproduce:
Spoiler:
Código:
General
Unique ID                   : 266929817698282390728906260969736061221 (0xC8D0D019EB4D3C59F28F4C363D0B4125)
Complete name               : E:\Downloads\JDownloader\Rampage (2018) 1080p BDRip Dual Latino\Rampage (2018).mkv
Format                      : Matroska
Format version              : Version 4 / Version 2
File size                   : 13.8 GiB
Duration                    : 1 h 47 min
Overall bit rate mode       : Variable
Overall bit rate            : 18.4 Mb/s
Encoded date                : UTC 2018-07-04 07:54:00
Writing application         : mkvmerge v20.0.0 ('I Am The Sun') 64-bit
Writing library             : libebml v1.3.5 + libmatroska v1.4.8


Video
ID                          : 1
Format                      : AVC
Format/Info                 : Advanced Video Codec
Format profile              : [email protected]
Format settings             : CABAC / 4 Ref Frames
Format settings, CABAC      : Yes
Format settings, ReFrames   : 4 frames
Codec ID                    : V_MPEG4/ISO/AVC
Duration                    : 1 h 47 min
Bit rate                    : 14.0 Mb/s
Width                       : 1 920 pixels
Height                      : 800 pixels
Display aspect ratio        : 2.40:1
Frame rate mode             : Constant
Frame rate                  : 23.976 (24000/1001) FPS
Color space                 : YUV
Chroma subsampling          : 4:2:0
Bit depth                   : 8 bits
Scan type                   : Progressive
Bits/(Pixel*Frame)          : 0.380
Stream size                 : 10.5 GiB (76%)
Writing library             : x264 core 155 r2867+74 66b5600 t_mod_Custom_2 [[email protected] X86_64]
Encoding settings           : cabac=1 / ref=4 / deblock=1:-3:-3 / analyse=0x3:0x133 / me=umh / subme=10 / psy=1 / fade_compensate=0.00 / psy_rd=0.95:0.10 / mixed_ref=1 / me_range=48 / chroma_me=1 / trellis=2 / 8x8dct=1 / cqm=0 / deadzone=21,11 / fast_pskip=0 / chroma_qp_offset=-4 / threads=12 / lookahead_threads=2 / sliced_threads=0 / nr=0 / decimate=1 / interlaced=0 / bluray_compat=0 / constrained_intra=0 / fgo=0 / bframes=7 / b_pyramid=2 / b_adapt=2 / b_bias=0 / direct=3 / weightb=1 / open_gop=0 / weightp=2 / keyint=250 / keyint_min=23 / scenecut=40 / intra_refresh=0 / rc_lookahead=30 / rc=2pass / mbtree=0 / bitrate=14000 / ratetol=1.0 / qcomp=0.70 / qpmin=0:0:0 / qpmax=69:69:69 / qpstep=4 / cplxblur=20.0 / qblur=0.5 / vbv_maxrate=35000 / vbv_bufsize=35000 / nal_hrd=none / filler=0 / ip_ratio=1.40 / pb_ratio=1.30 / aq=3:1.00 / aq-sensitivity=10.00 / aq-factor=1.00:1.00:1.00 / aq2=0 / aq3=2:[0.50:0.50]:[0.50:0.50]:[0.50:0.50]:[0.50:0.50] / aq3-sensitivity=10.00 / aq3-factor=[1.00:1.00]:[1.00:1.00]:[1.00:1.00] / aq3-boundary=192:64:24
Language                    : English
Default                     : Yes
Forced                      : No

Audio #1
ID                          : 2
Format                      : AC-3
Format/Info                 : Audio Coding 3
Codec ID                    : A_AC3
Duration                    : 1 h 47 min
Bit rate mode               : Constant
Bit rate                    : 448 kb/s
Channel(s)                  : 6 channels
Channel positions           : Front: L C R, Side: L R, LFE
Sampling rate               : 48.0 kHz
Frame rate                  : 31.250 FPS (1536 SPF)
Bit depth                   : 16 bits
Compression mode            : Lossy
Stream size                 : 344 MiB (2%)
Title                       : Latino AC3 5.1 448 kbps Bluray
Language                    : Latin
Service kind                : Complete Main
Default                     : Yes
Forced                      : No

Audio #2
ID                          : 3
Format                      : TrueHD
Format profile              : TrueHD+Atmos / TrueHD
Codec ID                    : A_TRUEHD
Duration                    : 1 h 47 min
Bit rate mode               : Variable
Bit rate                    : 3 279 kb/s
Maximum bit rate            : 5 205 kb/s
Channel(s)                  : Object Based / 8 channels
Channel positions           : Object Based / Front: L C R, Side: L R, Back: L R, LFE
Sampling rate               :  / 48.0 kHz
Frame rate                  : 1 200.000 FPS (40 SPF)
Compression mode            : Lossless
Stream size                 : 2.46 GiB (18%)
Title                       : Ingles TrueHD/Atmos 7.1 3279/5205 kbps Bluray
Language                    : English
Default                     : No
Forced                      : No

Audio #3
ID                          : 4
Format                      : AC-3
Format/Info                 : Audio Coding 3
Codec ID                    : A_AC3
Duration                    : 1 h 47 min
Bit rate mode               : Constant
Bit rate                    : 640 kb/s
Channel(s)                  : 6 channels
Channel positions           : Front: L C R, Side: L R, LFE
Sampling rate               : 48.0 kHz
Frame rate                  : 31.250 FPS (1536 SPF)
Bit depth                   : 16 bits
Compression mode            : Lossy
Stream size                 : 491 MiB (3%)
Title                       : Ingles AC3 5.1 640 kbps Bluray
Language                    : English
Service kind                : Complete Main
Default                     : No
Forced                      : No

Text #1
ID                          : 5
Format                      : UTF-8
Codec ID                    : S_TEXT/UTF8
Codec ID/Info               : UTF-8 Plain Text
Duration                    : 1 h 38 min
Bit rate                    : 52 b/s
Count of elements           : 1273
Stream size                 : 38.0 KiB (0%)
Title                       : Latino
Language                    : Latin
Default                     : No
Forced                      : No

Text #2
ID                          : 6
Format                      : UTF-8
Codec ID                    : S_TEXT/UTF8
Codec ID/Info               : UTF-8 Plain Text
Duration                    : 1 h 32 min
Bit rate                    : 1 b/s
Count of elements           : 27
Stream size                 : 1.10 KiB (0%)
Title                       : Forzados
Language                    : Latin
Default                     : Yes
Forced                      : No

Text #3
ID                          : 7
Format                      : PGS
Muxing mode                 : zlib
Codec ID                    : S_HDMV/PGS
Codec ID/Info               : Picture based subtitle format used on BDs/HD-DVDs
Duration                    : 1 h 46 min
Bit rate                    : 29.7 kb/s
Count of elements           : 2552
Stream size                 : 22.6 MiB (0%)
Title                       : Latino
Language                    : Latin
Default                     : No
Forced                      : No

Text #4
ID                          : 8
Format                      : PGS
Muxing mode                 : zlib
Codec ID                    : S_HDMV/PGS
Codec ID/Info               : Picture based subtitle format used on BDs/HD-DVDs
Duration                    : 1 h 46 min
Bit rate                    : 898 b/s
Count of elements           : 56
Stream size                 : 702 KiB (0%)
Title                       : Forzados
Language                    : Latin
Default                     : No
Forced                      : No



Por ultimo dejo la información del TV de Códecs de video compatibles:
Spoiler:


No se que puede ser lo que me de el error con las películas (1080p BDRip) descargadas de esta pagina, si alguien me puede ayudar.

Gracias.
Responder Citando
Antiguo 18-jul-2018     #2
Predeterminado

Yo también suelo descargar películas para ver directamente por la tv y también me suele pasar lo mismo. En general cada tipo de video tiene varios subtipos, descubrir cual es el incorrecto y porqué me parece dificil y poco práctico.
Lo que me resulta más práctico es convertir la película a un formato que de antemano sé que mi tv reconoce.
Para esto convertí un video corto a diferentes formatos hasta encontrar uno que mi tv reconoce. Cuando tengo problemas con alguna película la convierto a ese formato y listo.
En IV hay varios conversores de video que podés descargar.
Saludos

Felicidad no es hacer lo que uno quiere sino querer lo que uno hace.
Responder Citando
Respuesta


(0 miembros y 1 visitantes)
 
Herramientas
Desplegado

Normas de Publicación
No puedes crear nuevos temas
No puedes responder mensajes
No puedes subir archivos adjuntos
No puedes editar tus mensajes

Los Códigos BB están Activado
Las Caritas están Activado
[IMG] está Activado
El Código HTML está Desactivado

Ir al Foro

Temas Similares
Tema Autor Foro Respuestas Último mensaje
Películas 1080p: Reproducción en notebook Tunnelly Películas & Videos 3 14-nov-2013 22:51
Como reproducir peliculas 3D 1080p 2xBD50 bubblegame Películas & Videos 2 15-mar-2013 18:31
Mejoras en los links de peliculas 1080p fabiking Sugerencias y Dudas 1 28-ago-2011 01:00
Calidad De Archivos MP3: Bitrate JuanC7 Música & Audios 16 20-ene-2011 00:11


Desarrollado por: vBulletin® Versión 3.8.1
Derechos de Autor ©2000 - 2018, Jelsoft Enterprises Ltd.
Ad Management by RedTyger